» » George Shearing - You Stepped Out Of A Dream
George Shearing - You Stepped Out Of A Dream mp3 flac

George Shearing - You Stepped Out Of A Dream mp3 flac

Performer: George Shearing
Title: You Stepped Out Of A Dream
Released: 1967
Country: USA & Canada
Size MP3 version: 1299 mb
Size FLAC version: 1431 mb
Size WMA version: 1666 mb
Rating: 4.3
Votes: 536
Format: VOX ADX MPC AA DMF MP1 VQF
Genre: Jazz

George Shearing - You Stepped Out Of A Dream mp3 flac


You Stepped Out Of A Dream by George Shearing - his rendition of the song from the 1941 musical film "Ziegfeld Girl" - staring the lovely actresses Judy.

Complete your George Shearing collection.

George Shearing Дължина : 02:08.

Artists George Shearing Latin Lace, Latin Affair You Stepped Out of a Dream. You Stepped Out of a Dream George Shearing.

George Shearing You Stepped Out Of A Dream 1967. George Shearing 1967 Album Art Marbling Marbleized Marbleization. white satin cheesecake redhead pinup album art music vintage george shearing.

George Shearing –I Don't Stand A Ghost Of A Chance With You. 2:41. George Shearing –If I Should Lose You. 2:39. George Shearing –A Pretty Girl Is Like a Melody. George Shearing –I Hear A Rhapsody. George Shearing –East of the Sun. 2:52. The George Shearing Quintet With Brass Choir –Night Flight.

George Shearing şarkıcısına ait albümleri ve diğer şarkıları da görebilir ve dinleyebilirsiniz. Bunları da Dinlemek İsteyebilirsiniz. These Foolish Things George Shearing. You Stepped out of a Dream Glenn Miller. After You've Gone Dinah Washington. Lonely Moments George Shearing. Spookie Woogie George Shearing. Ghost of a Chance George Shearing. Conception George Shearing. These Foolish Things Remind Me of You Benny Goodman. I Didn't Know What Time It Was George Shearing. The Shadow of Your Smile George Shearing. George Shearing - Popüler Albümleri. Lullabies Of Birdland George Shearing. Lullaby Of Birdland George Shearing. The Definitive George Shearing George Shearing.

Lyrics taken from /lyrics/g/george shearing/you stepped out of a dream. Write about your feelings and thoughts about You Stepped Out Of A Dream. Make sure you've read our simple tips.

George Shearing - Bop's Your Uncle. George Shearing - Guilty. George Shearing - You're Driving Me Crazy.

(Cool) George Shearing - The Ultimate George Shearing - 2001, FLAC (tracks+. Cool, Latin Jazz) George Shearing - The Best Of George Shearing, Volume Two (1960-1969) - 1997, FLAC (tracks+. You Stepped Out Of A Dream. flac" WAVE TRACK 05 AUDIO TITLE "You Stepped Out Of A Dream" PERFORMER "George Shearing" ISRC 000000000000 INDEX 01 00:00:00 FILE "06. When Your Lover Has Gone. flac" WAVE TRACK 06 AUDIO TITLE "When Your Lover Has Gone" PERFORMER "George Shearing" ISRC 000000000000 INDEX 01 00:00:00 FILE "07. A Foggy Da. lac" WAVE TRACK 07 AUDIO TITLE "A Foggy Day" PERFORMER "George Shearing" ISRC 000000000000 INDEX 01 00:00:00 FILE "08.

Tracklist Hide Credits

A1 You Stepped Out Of A Dream
Written-By – Kahn*, Brown*
2:09
A2 Let's Call The Whole Thing Off
Written-By – George Gershwin
1:54
A3 It's Easy To Remember
Written-By – Rodgers, Hart*
2:08
A4 On Green Dolphin Street
Written-By – B. Kaper*, N. Washington*
2:36
A5 Come Rain Or Come Shine
Written-By – R. Arlen, J.H. Mercer*
2:56
B1 Serenata
Written-By – L. Anderson*
2:44
B2 Sand In My Shoes
Written-By – F. Loesser*, V. Schertzinger*
2:08
B3 Friendly Persuasion
Written-By – D. Tiomkine*, P.F. Webster*
2:49
B4 Guilty
Written-By – Kahn*, Akst*, Whiting*
3:15
B5 Goodnight My Love
Written-By – Harry Revel, Mack Gordon
3:14

Companies, etc.

  • Manufactured By – Keel Record Mfg. Of Canada Limited

Notes

Previously released on Capitol Records.
Printed in Canada.
Manufactured by Keel Record Mfg. of Canada Limited, Ajax, Ontario.
Cover photo printed in U.S.A.
By arrangement with Capitol Records.

Other versions

Category Artist Title (Format) Label Category Country Year
SPC 3100 George Shearing You Stepped Out Of A Dream ‎(LP, Comp, RE) Pickwick SPC 3100 USA & Canada 1967
PC 3100, PC-3100 George Shearing You Stepped Out Of A Dream ‎(LP, Comp, Mono, RE) Pickwick, Pickwick PC 3100, PC-3100 USA & Canada 1967