» » Hilde Louise Asbjørnsen - Sound Your Horn
Hilde Louise Asbjørnsen - Sound Your Horn mp3 flac

Hilde Louise Asbjørnsen - Sound Your Horn mp3 flac

Performer: Hilde Louise Asbjørnsen
Title: Sound Your Horn
Released: 2008
Size MP3 version: 1837 mb
Size FLAC version: 1900 mb
Size WMA version: 1673 mb
Rating: 4.5
Votes: 593
Format: MIDI MP2 VQF APE DMF DXD XM
Genre: Jazz

Hilde Louise Asbjørnsen - Sound Your Horn mp3 flac


Hilde Louises second musicvideo, made from the releaseconcert for her album "Sound Your Horn" at Blå in Oslo. Featuring Hilde Louise Orchestra

In Your Wildest Dreams - Hilde Louise Asbjørnsen, Hilde Louise. Открывайте новую музыку каждый день. Лента с персональными рекомендациями и музыкальными новинками, радио, подборки на любой вкус, удобное управление своей коллекцией.

More By Hilde Louise Asbjørnsen. See All. No Vil Eg Vake Med Deg.

Request an album send to friend. Hilde Louise Asbjørnsen. Sound Your Horn (2008). Hilde Louise Asbjørnsen - Sound Your Horn. Bitrate (quality): 192256320.

TITLE "Sound Your Horn" PERFORMER "Hilde Louise Asbjørnsen" REM DATE "2008" REM DISCID 7E09AC0C FILE "01 - Let's Stay I. av" WAVE TRACK 01 AUDIO TITLE "Let's Stay In" ISRC NOSMR0801010 INDEX 01 00:00:00 FILE "02 - It Ain't Friday. wav" WAVE TRACK 02 AUDIO TITLE "It Ain't Friday" ISRC NOSMR0801020 INDEX. wav" WAVE TRACK 09 AUDIO TITLE "Desert Song" ISRC NOSMR0801090 INDEX 01 00:00:00 FILE "10 - The Darkest Hour. wav" WAVE TRACK 10 AUDIO TITLE "The Darkest Hour" ISRC NOSMR0801100 INDEX 01 00:00:00 FILE "11 - This Love. wav" WAVE TRACK 11 AUDIO.

Tuba – David Gald Vocals, Oiano (8) – Hilde Louise Asbjørnsen. Born in the small town of Sykkylven on the Nortwest coast of Norway, Hilde Louise took piano lessons and sang in the local church choir, the only possible stage activities for children at that time and place. From the age of 16 she started performing with a model agency in Ålesund who offered fashion shows with dancing and entertainment (Piaf Modeller). In 2008 Aarum produced the album "Sound Your Horn", recorded in Oceansound Recordings, Giske. Sound Your Horn" went straight into the Norwegian Charts Top 40 and stayed there for 6 weeks. For that same album guitar player and composer Jan Martin Smørdal and bass player Jens Fossum joined the band, and put their signatures on both "Sound Your Horn" and "Never Ever Going Back". download (mp3 @320 kbs): yandex mediafire ulozto gett.

Listen to Hilde Louise Asbjørnsen Radio featuring songs from Sound Your Horn free online. Слушать бесплатное интернет-радио, спорт, музыку, новости, разговорное и подкасты. События в прямом эфире, трансляции игр NFL, MLB, NBA, NHL, университетских команд и матчи Премьер-лиги. Спорт, музыка, новости и подкасты. Слушайте аудиоконтент, который для вас наиболее важен.

More Hilde Louise Asbjørnsen. Listen to Sound Your Horn now. Listen to Sound Your Horn in full in the this site app. Play on this site.

Recorded and mixed at Oceansound Recordings, Giske, Norway and Bamse Studios, Oslo, Norway, 2008.

Top Songs Hilde Louise Asbjørnsen.

Tracklist Hide Credits

1 Let's Stay In
2 It Ain't Friday
3 Sweet Morning
4 All You Are To Me
5 Prelude To The Stars
6 The Room
7 This Winter
8 Look To The Stars
Piano – Hilde Louise Asbjørnsen
9 Desert Song
10 The Darkest Hour
11 This Love
12 Sound Your Horn

Credits

  • Accordion – Espen Leite
  • Backing Vocals – Julie Dahle Ågaard*, Karen Musæus, Lene Kongsvik Johansen
  • Bass, Backing Vocals – Jens Fossum
  • Cello – Samuel Skrede
  • Drums, Percussion, Backing Vocals – Klaus Robert Blomvik*
  • Flute – Ketil Vestrum Einarsen
  • Guitar, Backing Vocals – Jan Martin Smørdal
  • Harmonica – Finn Hauge
  • Piano, Keyboards, Backing Vocals, Producer, Arranged By, Recorded By – Anders Aarum
  • Recorded By, Mixed By – Eyvinn Magnus Solberg
  • Tenor Saxophone, Clarinet, Bass Clarinet – Atle Nymo
  • Trombone – Jørgen Gjerde
  • Trumpet – Kåre Nymark Jr.
  • Tuba – David Gald
  • Vocals, Music By, Lyrics By – Hilde Louise Asbjørnsen

Notes

Recorded and mixed at Oceansound Recordings, Giske, Norway and Bamse Studios, Oslo, Norway, 2008.

Barcode and Other Identifiers

  • Barcode: 7041880230128