» » Eddie "Lockjaw" Davis - Seven Classic Albums
Eddie "Lockjaw" Davis - Seven Classic Albums mp3 flac

Eddie "Lockjaw" Davis - Seven Classic Albums mp3 flac

Performer: Eddie "Lockjaw" Davis
Title: Seven Classic Albums
Style: Soul-Jazz
Released: 2014
Size MP3 version: 1947 mb
Size FLAC version: 1940 mb
Size WMA version: 1983 mb
Rating: 4.3
Votes: 787
Format: TTA RA DXD VQF MP2 AC3 ASF
Genre: Jazz

Eddie "Lockjaw" Davis - Seven Classic Albums mp3 flac


Saxophone – Eddie "Lockjaw" Davis, Sonny Stitt. Four Classic Albums (Digitally Remastered). The Orchard Music (от лица компании "Avid Entertainment"); EMI Music Publishing" и другие авторские общества (1).

The Chronological Classics: Eddie "Lockjaw" Davis 1948-1952 - Студийный альбом от Eddie "Lockjaw" Davis. Вышел Неизвестно В альбом вошло 26 треков.

Купить So Seven на OZON. Акции, скидки! · Удобная доставка · Акции и скидки · 20 способов оплаты · Гарантия ·

Ships Free in the . Artist: Eddie "Lockjaw" Davis Genre: Jazz Release Date: 09/17/2013 Label: 1-2-3-4-Go! Records Catalog Number: 2307306 Recording: Studio Length: Format: CD. Dig-Deeper. Early Lockjaw (CD) Eddie "Lockjaw" Davis. The Prestige Collection 1958-1961 (CD) Eddie "Lockjaw" Davis. The Tenor Scene (LP) Eddie "Lockjaw" Davis. Trackin', I Only Have Eyes For You (CD) Eddie "Lockjaw" Davis. Love Calls (LP) Eddie "Lockjaw" Davis

Edward F. Davis (March 2, 1922 – November 3, 1986), known professionally as Eddie "Lockjaw" Davis, was an American jazz tenor saxophonist. Davis played with Cootie Williams, Lucky Millinder, Andy Kirk, Eddie Bonnemere, Louis Armstrong, and Count Basie, as well as leading his own bands and making many recordings as a leader. He played in the swing, bop, hard bop, Latin jazz, and soul jazz genres. Some of his recordings from the 1940s also could be classified as rhythm and blues.

PERFORMER "Eddie Lockjaw Davis" INDEX 01 00:00:00 TRACK 02 AUDIO TITLE "I WISHED ON THE MOON" PERFORMER "Eddie Lockjaw Davis" INDEX 01 04:21:35 TRACK 03 AUDIO TITLE "TIN TIN DEO" PERFORMER "Eddie Lockjaw Davis" INDEX 01 11:02:53 TRACK 04 AUDIO TITLE "FROM THIS MOMENT ON " PERFORMER "Eddie Lockjaw Davis" INDEX 01 16:48:30 TRACK 05 AUDIO.

This category contains albums by Eddie "Lockjaw" Davis. This category has only the following subcategory. L. Eddie "Lockjaw" Davis live albums‎ (8 P). Pages in category "Eddie "Lockjaw" Davis albums". The following 38 pages are in this category, out of 38 total. This list may not reflect recent changes (learn more). All of Me (Eddie "Lockjaw" Davis album). Battle Stations (album).

Eddie "Lockjaw" Davis - But Beautiful (Remastered 2018) (07:43, 320Kb/s). Eddie "Lockjaw" Davis - The Chef (Remastered 2018) (05:58, 320Kb/s). Eddie "Lockjaw" Davis - Have Horn, Will Blow (Remastered 2018) (05:14, 320Kb/s). Eddie "Lockjaw" Davis - The Eddie "Lockjaw" Davis Cookbook Vol. 1 (2018). The Eddie "Lockjaw" Davis Cookbook Vol. 1 (2018) - download the album and listen online. On this page you can listen to the album, get information about the album, see the list of songs and much more

63. Blue Lou, The Complete Cookbook Sessions (with Shirley Scott). 64. Afternoon In A Doghouse, Eddie Davis Trio Featuring Shirley Scott Complete Recordings.

Продавец: Интернет-магазин Ozon. Адрес: Россия, Москва, Пресненская набережная, 10. ОГРН: 1027739244741

Tracklist

Very Saxy
1.1 Very Saxy 8:16
1.2 Lester Leaps In 6:13
1.3 Fourmost 5:20
1.4 Foot Pattin' 8:50
1.5 Light And Lovely 9:54
With Johnny Griffin - Battle Stations
1.6 What's Happening? 6:49
1.7 Abundance 6:53
1.8 If I Had You 6:44
1.9 63rd Street Theme 7:10
2.1 Pull My Coat 6:39
2.2 Hey Jim! 7:59
With Johnny Griffin - Tough Tenors
2.3 Tickle Toe 5:27
2.4 Save Your Love For Me 7:07
2.5 Twins 6:32
2.6 Funky Fluke 9:14
2.7 Imagination 4:27
2.8 Soft Winds 7:16
With Johnny Griffin - Lookin' At Monk
2.9 In Walked Bud 4:36
2.10 Well, You Needn't 5:32
2.11 Ruby My Dear 4:41
2.12 Rhythm-a-ning 3:56
3.1 Epistrophy 8:38
3.2 'Round Midnight 5:26
3.3 Stickball (I Mean You) 5:56
With Johnny Griffin - Blues Up & Down
3.4 Camp Meeting 5:26
3.5 Blues Up And Down 5:05
3.6 Nice And Easy 7:30
3.7 Oh, Gee 3:53
3.8 Walkin' 6:57
3.9 Leapin' On Lenox 4:39
3.10 Layin' On Mellow 4:52
With Johnny Griffin - Tough Tenor Favorites
3.11 Bahia 5:55
3.12 Blue Lou 4:44
3.13 How Am I To Know 4:57
4.1 Ow! 4:21
4.2 I Wished On The Moon 6:41
4.3 Tin Tin Deo 5:45
4.4 From This Moment On 6:05
With Harry 'Sweets' Edison - Jawbreakers
4.5 Oo-ee! 5:11
4.6 Broadway 5:19
4.7 Jawbreakers 6:33
4.8 Four 3:33
4.9 Moolah 4:38
4.10 A Gal In Calico 4:41
4.11 I've Got A Crush On You 5:54
4.12 Close Your Eyes 5:34

Barcode and Other Identifiers

  • Barcode: 5036408152121