» » Bob Crosby And His Orchestra - You're Driving Me Crazy Volume V 1937/38
Bob Crosby And His Orchestra - You're Driving Me Crazy Volume V 1937/38 mp3 flac

Bob Crosby And His Orchestra - You're Driving Me Crazy Volume V 1937/38 mp3 flac

Performer: Bob Crosby And His Orchestra
Title: You're Driving Me Crazy Volume V 1937/38
Style: Big Band, Swing
Released: 1993
Size MP3 version: 1763 mb
Size FLAC version: 1938 mb
Size WMA version: 1842 mb
Rating: 4.8
Votes: 244
Format: ADX MP1 VQF DTS AA MP2 VOC
Genre: Jazz

Bob Crosby And His Orchestra - You're Driving Me Crazy Volume V 1937/38 mp3 flac


Charlie & His Orchestra - You're Driving Me Crazy German Nazi WWII Propaganda Music - Duration: 3:19. warholsoup100 43,195 views.

Слушать песню Louis Amstrong and His Sebastian Cotton Club Orchestra – You re Driving Me Crazy онлайн или скачать mp3 в хорошем качестве (320 кбит/с) на телефон (Android, Iphone) вы можете на сайте MusicId.

Качественные покрышки Schwalbe по низкой цене! Официальный дилер. Гарантия! · Консультация эксерта · Быстрая доставка · Гарантия производителя

03 - Little Rock Getaway. 05 - You're Drving Me Crazy. 07 - Who's Sorry Now.

Merry Christmas is a compilation album by Bing Crosby that was released in 1945 on Decca Records. It has remained in print through the vinyl, CD, and downloadable file eras, currently as the disc and digital album White Christmas on MCA Records, a part of the Universal Music Group, (reissued in June 1995) and currently on vinyl as Merry Christmas on Geffen Records (re-issued in September 2014).

Benny Goodman and His Orchestra - You're Driving Me Crazy You're Driving Me Crazy Benny Goodman and His Orchestra. Benny Goodman and His Orchestra. Harry James Years, Volume 1. Play album. 21 tracks · 9 March 1993. The Ultimate Swing Box - the 250 Greatest Jazz & Big Band Classics. 100 Greatest Classics - Swing.

Bob Crosby & His Orchestra: (18-20) Same as for (11) but Zeke Zarchy and Sterling Bose (tp) replace Spivak and Lawson. INDEX 01 00:00:00 TRACK 05 AUDIO TITLE "You're Drving Me Crazy" PERFORMER "Bob Crosby" INDEX 00 02:36:43 FILE "05 - You're Drving Me Crazy. wav" WAVE INDEX 01 00:00:00 TRACK 06 AUDIO TITLE "Coquette" PERFORMER "Bob Crosby" INDEX 00 02:48:60 FILE "06 - Coquette. wav" WAVE INDEX 01 00:00:00 TRACK 07 AUDIO TITLE. Who's Sorry Now" PERFORMER "Bob Crosby" INDEX 00 03:01:38 FILE "07 - Who's Sorry No. av" WAVE INDEX 01 00:00:00 TRACK 08 AUDIO TITLE "Dogtown Blues" PERFORMER "Bob.

Originally relased as Brad Collins and his Orchestra on 12" 33 1/2 standard groove Associated Transcriptions. Reissue produced by Carl A. Hällström. Other (EAN): 717101301829.

You’re Driving Me Crazy" is an American popular song composed (music and lyrics) by Walter Donaldson in 1930 and recorded the same year by Lee Morse, Rudy Vallée & His Connecticut Yankees and Guy Lombardo & His Royal Canadians (with vocal by Carmen Lombardo). The song became a hit and was added to the 1930 musical comedy Smiles, starring Marilyn Miller and Fred and Adele Astaire. It was also recorded in 1930 by McKinney's Cotton Pickers and by Nick Lucas & His Crooning Troubadors.

Tracklist Hide Credits

1 Coquette
Written-By – Lombardo*, Kahn*, Green*
3:00
2 Fidgety Feet
Written-By – Shields*, LaRocca*
2:35
3 You're Driving Me Crazy
Written-By – Walter Donaldson
2:49
4 Can't We Be Friends?
Written-By – Kay Swift, Paul James
2:52
5 Martha
Vocals – Connie BoswellWritten-By – Friedrich von Flotow
3:02
6 Home On The Range
Vocals – Connie Boswell
2:31
7 Gypsy Love Song
Vocals – Connie BoswellWritten-By – H. B. Smith*, V. Herbert*
2:44
8 Ah! Sweet Mystery Of Life
Vocals – Connie BoswellWritten-By – R.J. Young*, V. Herbert*
2:53
9 The Thrill of a Lifetime
Vocals – Kay WeberWritten-By – Lombardo*, Hollander*, Coslow*
2:47
10 Be A Good Sport
Vocals – Bob CrosbyWritten-By – H. Revel*, M. Gordon*
2:41
11 Every Day's a Holiday
Vocals – Bob CrosbyWritten-By – B. Trivers*, S. Coslow*
2:56
12 South Rampart Street Parade
Written-By – B. Crosby*, R. Haggart*, R. Bauduc*
3:31
13 Dogtown Blues
Written-By – R. Haggart*
4:08
14 Sweet Someone
Written-By – Harry Revel, Mack Gordon
2:58
15 Just Strolling
Written-By – J. Sullivan*
3:12
16 Panama
Written-By – Tyers*
2:39
17 Big Apple Dance: When My Dreamboat Comes Home
Vocals – Nappy Lamarte*Written-By – C. Friend*, D. Franklin*
2:45
18 It's Wonderful
Vocals – Kay WeberWritten-By – Mitchell Parish, Smith*
3:11
19 In the Shade of the New Apple Tree
Vocals – Bob CrosbyWritten-By – E.Y. Harburg, Harold Arlen
3:06
20 Always and Always
Vocals – Kay WeberWritten-By – Chet Forrest, B. Wright*
3:20

Companies, etc.

  • Marketed By – Submarine
  • Mastered At – CTS Studios

Credits

  • Alto Saxophone – Joe Kearns (tracks: 9 to 20)
  • Bass – Bob Haggart
  • Clarinet, Alto Saxophone – Matty Matlock
  • Clarinet, Tenor Saxophone – Eddie Miller
  • Compiled By – Charlie Crump
  • Coordinator – Frank Greene
  • Drums – Ray Bauduc
  • Graphics, Typography – John R. Bennett
  • Guitar – Nappy Lamare
  • Leader – Bob Crosby
  • Liner Notes – John Bennett*
  • Mastered By [Digital Mastering] – Mike Brown
  • Piano – Bob Zurke
  • Tenor Saxophone – Gil Rodin (tracks: 9 to 20)
  • Trombone – Ward Silloway (tracks: 9 to 20), Warren Smith*
  • Trumpet – Billy Butterfield (tracks: 9 to 20), Charlie Spivak (tracks: 9 to 20), Yank Lawson

Notes

Recording dates:
Tracks 1 to 7: 13th November 1937, Los Angeles
Tracks 8 to 17: 16th November 1937, Los Angeles
Tracks 18 to 20: 3rd February 1938, New York

Barcode and Other Identifiers

  • Barcode: 5 019317 001179 >